Breaking

Game of Thrones - S07E05 - Eastwatch - Download Online



INFO:
General:
Complete name :Game of Thrones -S07E05 -Eastwatch -540P- WEBRip - x264-AAC- 472MB -[GAMER'S EXCLUSIVE].mkv
Format   : Matroska
Format version   : Version 4 / Version 2
File size : 472 MiB
Duration   : 1 h 0 min
Overall bit rate : 1 082 kb/s
Movie name   : Encoded And Ripped by GAMER'S
Encoded date  : UTC 2017-08-14 06:37:58
Writing application   : mkvmerge v13.0.0 ('The Juggler') 64bit
Writing library  : libebml v1.3.4 + libmatroska v1.4.5 / Lavf56.30.100
Video
ID                                       : 1
Format                                   : AVC
Format/Info                              : Advanced Video Codec
Format profile                           : Main@L3.1
Format settings, CABAC                   : Yes
Format settings, RefFrames               : 4 frames
Codec ID                                 : V_MPEG4/ISO/AVC
Duration                                 : 1 h 0 min
Bit rate                                 : 983 kb/s
Width                                    : 960 pixels
Height                                   : 540 pixels
Display aspect ratio                     : 16:9
Frame rate mode                          : Constant
Frame rate                               : 23.976 (24000/1001) FPS
Color space                              : YUV
Chroma subsampling                       : 4:2:0
Bit depth                                : 8 bits
Scan type                                : Progressive
Bits/(Pixel*Frame)                       : 0.079
Stream size                              : 429 MiB (91%)
Title                                    : GAMER'S EXCLUSIVE
Writing library                          : x264 core 146
Default                                  : Yes
Forced                                   : No
Audio
ID                                       : 2
Format                                   : MPEG Audio
Format version                           : Version 1
Format profile                           : Layer 3
Mode                                     : Joint stereo
Mode extension                           : MS Stereo
Codec ID                                 : A_MPEG/L3
Codec ID/Hint                            : MP3
Duration                                 : 1 h 0 min
Bit rate mode                            : Constant
Bit rate                                 : 96.0 kb/s
Channel(s)                               : 2 channels
Sampling rate                            : 44.1 kHz
Frame rate                               : 38.281 FPS (1152 SPF)
Compression mode                         : Lossy
Delay relative to video                  : -19 ms
Stream size                              : 41.9 MiB (9%)
Title                                    : GAMER'S EXCLUSIVE
Writing library                          : LAME3.99ó#Îk"q^ru)¤
Language                                 : English
Default                                  : Yes
Forced                                   : No
Text
ID                                       : 3
Format                                   : UTF-8
Codec ID                                 : S_TEXT/UTF8
Codec ID/Info                            : UTF-8 Plain Text
Duration                                 : 1 h 0 min
Bit rate                                 : 55 b/s
Count of elements                        : 779
Stream size                              : 24.7 KiB (0%)
Title                                    : GAMER'S EXCLUSIVE
Language                                 : English
Default                                  : No
Forced                                   : No

Direct Download Links:


Online Streaming Link:









No comments:

Powered by Blogger.